<?xml version="1.0" standalone="no"?>
<!DOCTYPE svg PUBLIC "-//W3C//DTD SVG 1.1//EN" "http://www.w3.org/Graphics/SVG/1.1/DTD/svg11.dtd" >
<svg xmlns="http://www.w3.org/2000/svg">
<metadata>Generated by IcoMoon</metadata>
<defs>
<font id="icomoon" horiz-adv-x="1024">
<font-face units-per-em="1024" ascent="960" descent="-64" />
<missing-glyph horiz-adv-x="1024" />
<glyph unicode="&#x20;" horiz-adv-x="512" d="" />
<glyph unicode="&#xe900;" glyph-name="headset" d="M964 492.384v17.616c0 250.394-206.912 450-454 450-248.714 0-450-201.264-450-450v-17.616c-38.44-35.604-60-84.578-60-136.384 0-99.252 80.748-180 180-180 28.122 0 11.046 0 90 0 49.626 0 90 40.374 90 90v184c0 49.626-40.374 90-90 90h-28.324c14.972 134.81 129.586 240 268.324 240 140.792 0 257.106-105.19 272.3-240h-28.3c-49.626 0-90-40.374-90-90v-184c0-49.626 40.374-90 90-90h30v-30c0-49.626-40.374-90-90-90h-35.16c-12.384 34.916-45.73 60-84.84 60h-64c-49.626 0-90-40.374-90-90s40.374-90 90-90h64c39.11 0 72.456 25.084 84.84 60h35.16c82.71 0 150 67.29 150 150v30c99.252 0 180 80.748 180 180 0 51.722-21.5 100.724-60 136.384zM574-4h-64c-16.542 0-30 13.458-30 30s13.458 30 30 30h64c16.542 0 30-13.458 30-30s-13.458-30-30-30zM180 236c-66.168 0-120 53.832-120 120 0 67.214 54.954 124 120 124v-244zM270 480c16.542 0 30-13.458 30-30v-184c0-16.542-13.458-30-30-30h-30v244h30zM784 236h-30c-16.542 0-30 13.458-30 30v184c0 16.542 13.458 30 30 30h30v-244zM842.606 540c-15.338 167.12-159.080 300-332.606 300-171.85 0-313.414-132.044-328.622-300h-1.378c-20.552 0-40.604-3.592-59.51-10.472 10.208 206.010 181.012 370.472 389.51 370.472 210.636 0 383.19-164.46 393.506-370.47-18.906 6.878-38.956 10.47-59.506 10.47h-1.394zM844 236v244c65.046 0 120-56.786 120-124 0-66.168-53.832-120-120-120z" />
<glyph unicode="&#xe901;" glyph-name="woman" d="M722.455 116h-60c-16.568 0-30-13.432-30-30s13.432-30 30-30h60c16.568 0 30 13.432 30 30s-13.432 30-30 30zM767.659 322.893c-6.432 1.572-102.682 25.088-109.116 26.66v69.746c39.388 38.194 63.91 91.634 63.91 150.702v120c0 14.952-1.584 29.542-4.568 43.618 38.722 20.332 64.568 61.132 64.568 106.382 0 66.168-53.832 120-120 120-45.248 0-86.050-25.846-106.382-64.568-14.076 2.982-28.664 4.566-43.616 4.566-115.794 0-209.6-94.206-209.6-210v-120c0-57.086 22.908-108.916 60-146.808v-73.77l-106.67-26.568c-77.808-19.452-126.438-96.294-110.708-174.938l37.56-187.8c2.804-14.022 15.116-24.116 29.418-24.116h599.089c14.3 0 26.614 10.094 29.418 24.116l37.56 187.8c15.728 78.646-32.9 155.488-110.864 174.978zM662.455 899.998c33.084 0 60-26.916 60-60 0-20.004-10.090-38.266-25.79-49.256-19.118 34.822-48.062 64.026-83.464 83.464 10.988 15.702 29.25 25.792 49.254 25.792zM512.455 839.998c48.988 0 92.56-23.61 119.952-60.042-28.144-37.358-72.63-59.958-119.952-59.958h-146.982c13.936 68.384 74.542 120 146.982 120zM362.455 569.999v90h150c55.478 0 108.166 22.182 146.964 60.094 1.988-9.726 3.436-19.79 3.436-30.094v-120c0-82.71-67.69-150-150.4-150s-150 67.29-150 150zM621.423 296.857l9.874-2.412c-27.992-36.324-71.606-58.446-118.842-58.446-47.584 0-91.466 22.434-119.432 59.218l6.708 1.676c13.356 3.338 22.724 15.338 22.724 29.104v54.29c27.292-13 57.81-20.29 90-20.29 30.66 0 59.806 6.608 86.090 18.468v-52.466c0-13.826 9.448-25.862 22.878-29.142zM819.686 159.684l-32.736-163.684h-549.903l-32.736 163.684c-9.438 47.186 19.738 93.292 66.424 104.962l60.544 15.136c37.374-63.768 105.976-103.782 181.176-103.782 74.98 0 143.438 39.814 180.88 103.288l59.93-14.642c46.684-11.67 75.86-57.774 66.422-104.962z" />
<glyph unicode="&#xe902;" glyph-name="like" d="M933.948 568.172h-226.618c23.316 41.336 38.844 80.674 46.312 117.43 9.516 46.826 5.486 88.768-11.656 121.298-20.012 37.98-57.322 60.746-99.804 60.9-0.146 0-0.29 0-0.434 0-29.012 0-50.682-10.596-64.402-31.492-10.682-16.268-14.962-36.090-19.916-59.042-11.89-55.064-28.092-130.062-142.662-209.094-18.832-0.002-62.256-0.004-89.942-0.002-12.382 34.916-45.728 60-84.836 60h-209.992c-16.566-0.002-29.998-13.434-29.998-30v-539.97c0-16.568 13.432-29.998 29.998-29.998h209.988c39.108 0 72.452 25.082 84.836 59.996h35.072c100.736-28.004 205.138-59.996 313.804-59.996h140.256c49.624 0 89.994 40.372 89.994 89.994 0 11.712-2.272 22.896-6.362 33.17 51.306 13.984 79.98 69.794 59.996 119.994 64.482 17.576 87.982 97.048 43.37 146.82 51.804 57.796 10.576 149.992-67.004 149.992zM269.984 537.934h-0.002c0-0.012 0.002-0.024 0.002-0.036v-419.702c0-16.54-13.458-29.996-29.998-29.996h-179.99v479.972h179.99c16.542 0 29.998-13.458 29.998-29.998v-0.24zM783.956 388.18h149.992c16.542 0 29.998-13.458 29.998-29.998 0-16.542-13.458-29.996-29.998-29.996-13.618 0-136.066 0-149.992 0-16.568 0-29.998-13.432-29.998-29.998 0-16.568 13.432-29.998 29.998-29.998h89.994c16.542 0 29.998-13.458 29.998-29.998 0-16.542-13.458-29.998-29.998-29.998h-89.994c-16.568 0-29.998-13.432-29.998-29.998s13.432-29.998 29.998-29.998h29.998c16.542 0 29.998-13.458 29.998-29.998s-13.458-29.998-29.998-29.998h-140.256c-101.262 0-203.268 31.618-301.704 58.906-5.094 1.41-4.54 0.69-42.012 0.69v360.774c45.936-0.002 94.156-0.398 94.156-0.398 5.87 0.030 11.596 1.782 16.478 5.038 141.552 94.368 162.776 192.662 175.456 251.39 9.34 43.256 10.912 43.244 25.888 43.2 20.5-0.074 37.174-10.33 46.948-28.874 9.408-17.858 32.862-86.776-60.386-223.886-13.52-19.876 0.752-46.87 24.804-46.87h280.622c16.542 0 29.998-13.458 29.998-29.998 0-16.542-13.458-29.998-29.998-29.998h-149.992c-16.568 0-29.998-13.432-29.998-29.998 0-16.568 13.43-29.998 29.998-29.998zM209.988 178.186c0-16.567-13.431-29.998-29.998-29.998s-29.998 13.431-29.998 29.998c0 16.567 13.431 29.998 29.998 29.998s29.998-13.431 29.998-29.998z" />
<glyph unicode="&#xe903;" glyph-name="assistance" d="M851.26 348.829c-0.416 0.14-0.836 0.27-1.26 0.39l-112.098 31.964-79.57 75.904v20.404c38.078 38.034 62.068 90.57 62.068 148.512v124c0.002 115.48-93.526 209.996-209.598 209.996-115.794 0-209.998-94.206-209.998-209.998v-124c0-57.942 23.99-110.478 62.068-148.512v-20.404l-79.062-75.798-109.994-32.124c-0.362-0.106-0.72-0.218-1.076-0.336-48.286-16.094-76.55-67.188-64.662-116.586l53.036-271.979c2.792-14.324 15.348-24.264 29.412-24.264 0.834 0 1.674 0.050 2.516 0.122 0.758-0.060 1.514-0.118 2.286-0.118h635.241c14.24 0 26.52 10.012 29.386 23.96l55.928 272.117c11.994 49.45-16.28 100.636-64.622 116.75zM681.937 351.791l-85.798-128.7-46.772 46.772 84.864 127.896 47.706-45.968zM510.799 900c48.988 0 92.56-23.61 119.952-60.042-28.142-37.358-72.628-59.958-119.952-59.958h-146.982c13.94 68.384 74.544 120 146.982 120zM360.401 626.001v94h150.4c55.478 0 108.166 22.182 146.964 60.094 1.988-9.726 3.036-19.79 3.036-30.094v-124c0-82.71-67.29-150-150-150-82.712 0-150.4 67.29-150.4 150zM387.371 397.759l84.866-127.896-46.772-46.772-85.798 128.7 47.704 45.968zM480.801-3.996h-265.529c-0.224 1.144-48.496 248.826-48.784 249.956-4.818 19.274 6.046 39.29 24.766 45.792l97.368 28.436 107.218-160.828c10.48-15.726 32.774-17.976 46.174-4.572l38.788 38.788v-197.572zM438.845 428.705c22.456-8.216 46.692-12.702 71.956-12.702s49.5 4.486 71.956 12.702l-71.956-108.442-71.956 108.442zM857.226 244.725l-51.118-248.72h-265.709v197.572l39.188-38.788c13.386-13.392 35.684-11.166 46.174 4.572l107.222 160.834 99.84-28.47c16.392-5.734 29.472-22.576 24.402-47zM750.799 116.002h-60c-16.568 0-30-13.432-30-30s13.432-30 30-30h60c16.568 0 30 13.432 30 30s-13.43 30-30 30z" />
<glyph unicode="&#xe904;" glyph-name="megaphone" d="M270 567.996h-120c-16.568 0-30-13.432-30-30s13.432-29.6 30-29.6h120c16.568 0 30 13.032 30 29.6s-13.432 30-30 30zM270 447.996h-120c-16.568 0-30-13.432-30-30s13.432-29.6 30-29.6h120c16.568 0 30 13.032 30 29.6s-13.432 30-30 30zM903.998 624.978v213.026c0 49.626-40.374 90-90 90-44.766 0-81.988-32.856-88.854-75.716l-137.154-99.052c-0.106-0.076-0.21-0.154-0.314-0.23-56.486-41.922-126.332-65.010-196.674-65.010h-241.002c-82.71 0-150-67.29-150-150v-120c0-82.71 67.29-150 150-150l30 0.4v-210.4c0-49.626 40.374-90 90-90s90 40.374 90 90v90h30c49.626 0 90 40.374 90 90v17.366c38.812-11.032 75.618-29.080 108-53.368 0.106-0.078 0.21-0.156 0.316-0.234l137.198-100.118c7.716-41.84 44.442-73.644 88.484-73.644 49.626 0 90 40.374 90 90v213.016c68.386 13.936 120.002 74.542 120.002 146.982s-51.616 133.046-120.002 146.982zM300 57.996c0-16.542-13.458-30-30-30s-30 13.458-30 30v210.4h60v-210.4zM150 327.996c-49.626 0-90 40.374-90 90v120c0 49.626 40.374 90.4 90 90.4h210v-300.4h-210zM420 237.996c0-16.542-13.458-30-30-30h-30v60.4c31.726 0 41.384-0.082 60-1.81v-28.59zM724.398 177.026l-100.562 73.092c-58.946 44.162-130.402 70.926-203.836 76.688v302.308c73.080 5.55 144.322 31.888 203.272 75.592l101.126 72.744v-600.424zM844.398 118c0-16.542-13.858-30-30.4-30s-30 13.458-30 30v720.004c0 16.542 13.458 30 30 30s30.4-13.458 30.4-30v-720.004zM903.998 393.156v169.68c34.918-12.384 60.002-45.73 60.002-84.84s-25.084-72.456-60.002-84.84z" />
<glyph unicode="&#xe905;" glyph-name="smartphone-2" d="M902 716h-150v154c0 49.626-40.374 90-90 90h-540c-49.626 0-90-40.374-90-90v-844c0-49.626 40.374-90 90-90h540c49.626 0 90 40.374 90 90v210h150c49.44 0 90 40.256 90 90v300c0 49.44-40.256 90-90 90zM889.574 656l-206.36-206.36c-11.698-11.698-30.728-11.698-42.426 0l-206.362 206.36h455.148zM529.574 476l-137.574-137.574v275.148l137.574-137.574zM92 870c0 16.542 13.458 30 30 30h540c16.542 0 30-13.458 30-30v-30h-600v30zM692 26c0-16.542-13.458-30-30-30h-540c-16.542 0-30 13.458-30 30v90h600v-90zM692 176h-600v604h600v-64h-270c-49.44 0-90-40.256-90-90v-300c0-49.44 40.256-90 90-90h270v-60zM434.426 296l137.574 137.574 26.362-26.362c35.088-35.088 92.186-35.090 127.278 0l26.36 26.362 137.574-137.574h-455.148zM932 338.426l-137.574 137.574 137.574 137.574v-275.148z" />
<glyph unicode="&#xe906;" glyph-name="house" d="M1023.73 517.025c-1.842 23.976-12.91 45.792-31.162 61.432l-88.572 75.92v215.734c0 16.568-13.432 29.998-29.998 29.998h-119.996c-16.568 0-29.598-13.432-29.598-29.998v-61.456l-151.822 129.39c-33.94 29.078-83.206 29.074-117.038 0.086l-424.087-359.671c-37.506-32.136-42.372-88.846-9.732-126.946 24.878-28.93 64.728-38.154 98.7-26.214v-459.169c0-16.568 13.032-29.998 29.598-29.998h723.973c16.568 0 29.998 13.432 29.998 29.998v459.163c35.068-12.4 74.078-2.008 98.334 26.26 15.64 18.256 23.242 41.508 21.402 65.47zM784 840.114h60.398v-134.308l-60.398 51.426v82.882zM634.405-3.87h-244.39v240.392h244.39v-240.392zM844.398-3.87h-150.394v269.991c0 16.568-13.432 29.998-29.998 29.998h-303.991c-16.568 0-29.598-13.432-29.598-29.998v-269.991h-150.394v472.319l333.887 283.227 330.491-282.947v-472.599zM956.78 490.611c-10.636-12.396-29.544-14.214-42.316-3.262l-380.933 326.529c-11.19 9.594-27.69 9.634-38.928 0.1-8.118-6.884-383.443-325.265-385.031-326.613-12.564-10.75-31.564-9.284-42.322 3.23-10.77 12.57-9.314 31.548 3.138 42.22l424.089 359.673c11.32 9.696 27.748 9.698 39.060 0.004l419.989-359.591c12.556-10.76 14.010-29.74 3.254-42.29zM604.005 600.123h-183.992c-16.568 0-29.598-13.432-29.598-29.998v-179.992c0-16.568 13.032-29.998 29.598-29.998h183.992c16.568 0 29.998 13.432 29.998 29.998v179.992c0.002 16.568-13.43 29.998-29.998 29.998zM574.407 420.129h-124.396v119.996h124.396v-119.996zM573.997 146.13c0-16.567-13.431-29.998-29.998-29.998s-29.998 13.431-29.998 29.998c0 16.567 13.431 29.998 29.998 29.998s29.998-13.431 29.998-29.998z" />
<glyph unicode="&#xe907;" glyph-name="id-card" d="M934 838h-844c-49.626 0-90-40.374-90-90v-600c0-49.626 40.374-90 90-90h844c49.626 0 90 40.374 90 90v600c0 49.626-40.374 90-90 90zM964 148c0-16.542-13.458-30-30-30h-844c-16.542 0-30 13.458-30 30v600c0 16.542 13.458 30 30 30h844c16.542 0 30-13.458 30-30v-600zM300 478c-99.252 0-180-80.748-180-180v-30c0-49.626 40.374-90 90-90h180c49.626 0 90 40.374 90 90v30c0 99.252-80.748 180-180 180zM420 268c0-16.542-13.458-30-30-30h-180c-16.542 0-30 13.458-30 30v30c0 66.168 53.832 120 120 120s120-53.832 120-120v-30zM300 718c-66.168 0-120-53.832-120-120s53.832-120 120-120 120 53.832 120 120-53.832 120-120 120zM300 538c-33.084 0-60 26.916-60 60s26.916 60 60 60 60-26.916 60-60-26.916-60-60-60zM874 298h-300c-16.568 0-30-13.432-30-30s13.432-30 30-30h300c16.568 0 30 13.432 30 30s-13.432 30-30 30zM874 418h-300c-16.568 0-30-13.432-30-30s13.432-30 30-30h300c16.568 0 30 13.432 30 30s-13.432 30-30 30zM874 538h-300c-16.568 0-30-13.432-30-30s13.432-30 30-30h300c16.568 0 30 13.432 30 30s-13.432 30-30 30zM814 658h-180c-16.568 0-30-13.432-30-30s13.432-30 30-30h180c16.568 0 30 13.432 30 30s-13.432 30-30 30z" />
<glyph unicode="&#xe908;" glyph-name="fax" d="M934 776h-30v154c0 16.568-13.432 30-30 30h-420c-16.568 0-30-13.432-30-30v-154h-65.16c-12.384 34.916-45.73 60-84.84 60h-64c-39.11 0-72.456-25.084-84.84-60h-35.16c-49.626 0-90-40.374-90-90v-600c0-49.626 40.374-90 90-90h35.16c12.384-34.916 45.73-60 84.84-60h64c39.11 0 72.456 25.084 84.84 60h575.16c49.626 0 90 40.374 90 90v600c0 49.626-40.374 90-90 90zM120 56h-30c-16.542 0-30 13.458-30 30v600c0 16.542 13.458 30 30 30h30v-660zM304 26c0-16.542-13.458-30-30-30h-64c-16.542 0-30 13.458-30 30v720c0 16.542 13.458 30 30 30h64c16.542 0 30-13.458 30-30v-720zM484 900h360v-124h-360v124zM964 86c0-16.542-13.458-30-30-30h-570v660h570c16.542 0 30-13.458 30-30v-600zM514 176h-60c-16.568 0-30-13.432-30-30s13.432-30 30-30h60c16.568 0 30 13.432 30 30s-13.432 30-30 30zM694 176h-60c-16.568 0-30-13.432-30-30s13.432-30 30-30h60c16.568 0 30 13.432 30 30s-13.432 30-30 30zM874 176h-60c-16.568 0-30-13.432-30-30s13.432-30 30-30h60c16.568 0 30 13.432 30 30s-13.432 30-30 30zM514 296h-60c-16.568 0-30-13.432-30-30s13.432-30 30-30h60c16.568 0 30 13.432 30 30s-13.432 30-30 30zM694 296h-60c-16.568 0-30-13.432-30-30s13.432-30 30-30h60c16.568 0 30 13.432 30 30s-13.432 30-30 30zM874 296h-60c-16.568 0-30-13.432-30-30s13.432-30 30-30h60c16.568 0 30 13.432 30 30s-13.432 30-30 30zM514 416h-60c-16.568 0-30-13.432-30-30s13.432-30 30-30h60c16.568 0 30 13.432 30 30s-13.432 30-30 30zM694 416h-60c-16.568 0-30-13.432-30-30s13.432-30 30-30h60c16.568 0 30 13.432 30 30s-13.432 30-30 30zM874 416h-60c-16.568 0-30-13.432-30-30s13.432-30 30-30h60c16.568 0 30 13.432 30 30s-13.432 30-30 30zM874 656h-420c-16.568 0-30-13.432-30-30v-120c0-16.568 13.432-30 30-30h420c16.568 0 30 13.432 30 30v120c0 16.568-13.432 30-30 30zM844 536h-360v60h360v-60z" />
<glyph unicode="&#xe909;" glyph-name="contract" d="M997.582 637.746c-35.090 35.092-92.188 35.090-127.29-0.008-10.796-10.806-79.726-79.792-90.256-90.332v237.742c0 24.040-9.362 46.64-26.362 63.638l-84.85 84.854c-16.998 17-39.6 26.36-63.64 26.36h-515.148c-49.626 0-90-40.374-90-90v-844c0-49.626 40.374-90 90-90h600c49.626 0 90 40.374 90 90v266.738l217.544 217.728c35.174 35.172 35.182 92.104 0.002 127.28zM600.038 900c5.668 0 16.59 0.982 26.36-8.786l84.852-84.854c9.52-9.522 8.788-19.956 8.788-26.36h-120v120zM720.036 26c0-16.542-13.456-30-30-30h-600c-16.542 0-30 13.458-30 30v844c0 16.542 13.458 30 30 30h450v-150c0-16.568 13.432-30 30-30h150v-232.646c0 0-88.508-88.584-88.512-88.586l-42.406-42.408c-3.292-3.292-5.776-7.308-7.248-11.726l-42.428-127.28c-3.594-10.78-0.788-22.666 7.248-30.7 8.046-8.046 19.936-10.838 30.7-7.248l127.28 42.426c4.418 1.472 8.434 3.954 11.726 7.248l3.64 3.64v-206.72zM652.756 335.146l42.426-42.426-16.206-16.206-63.638-21.212 21.212 63.64 16.206 16.204zM737.6 335.156l-42.426 42.426c22.592 22.61 122.93 123.034 144.21 144.332l42.426-42.426-144.21-144.332zM955.146 552.884l-30.926-30.952-42.426 42.426 30.936 30.962c11.704 11.698 30.732 11.696 42.428 0 11.694-11.7 11.756-30.666-0.012-42.436zM570.036 660h-420c-16.568 0-30-13.432-30-30s13.432-30 30-30h420c16.568 0 30 13.432 30 30s-13.432 30-30 30zM450.036 540h-300c-16.568 0-30-13.432-30-30s13.432-30 30-30h300c16.568 0 30 13.432 30 30s-13.432 30-30 30zM450.036 420h-300c-16.568 0-30-13.432-30-30s13.432-30 30-30h300c16.568 0 30 13.432 30 30s-13.432 30-30 30zM450.036 300h-300c-16.568 0-30-13.432-30-30s13.432-30 30-30h300c16.568 0 30 13.432 30 30s-13.432 30-30 30zM570.036 116h-180c-16.568 0-30-13.432-30-30s13.432-30 30-30h180c16.568 0 30 13.432 30 30s-13.432 30-30 30z" />
<glyph unicode="&#xe90a;" glyph-name="smartphone-1" d="M92.646 278.531c-44.514 109.772-44.604 228.944 0 338.945 6.23 15.36-1.174 32.868-16.54 39.1-15.368 6.232-32.872-1.174-39.102-16.538-49.284-121.528-49.394-262.273 0-384.073 6.234-15.374 23.75-22.768 39.102-16.538 15.368 6.232 22.77 23.738 16.54 39.104zM986.996 640.035c-6.23 15.364-23.742 22.77-39.102 16.538-15.368-6.23-22.77-23.738-16.54-39.104 44.514-109.772 44.604-228.944 0-338.945-7.992-19.708 6.544-41.312 27.812-41.312 11.862 0 23.098 7.080 27.83 18.748 49.068 120.998 49.61 261.743 0 384.075zM875.588 594.893c-6.222 15.368-23.73 22.784-39.094 16.562-15.37-6.222-22.784-23.726-16.562-39.094 32.748-80.882 32.82-167.662 0-248.72-7.994-19.746 6.596-41.296 27.818-41.296 11.868 0 23.11 7.088 27.838 18.764 38.036 93.96 38.114 199.63 0 293.785zM204.068 572.361c6.222 15.37-1.192 32.872-16.562 39.094-15.364 6.22-32.872-1.192-39.094-16.562-38.036-93.962-38.114-199.632 0-293.787 6.224-15.374 23.732-22.782 39.094-16.562 15.37 6.222 22.784 23.726 16.562 39.094-32.748 80.884-32.82 167.664 0 248.722zM694.131 838.282h-364.263c-49.662 0-90.064-40.404-90.064-90.064v-600.433c0-49.662 40.402-90.064 90.064-90.064h364.263c49.662 0 90.064 40.402 90.064 90.064v600.431c0 49.662-40.402 90.066-90.064 90.066zM299.847 748.216c0 16.554 13.466 30.022 30.022 30.022h364.263c16.554 0 30.022-13.468 30.022-30.022v-30.022h-424.307v30.022zM299.847 658.151h424.305v-420.303h-424.305v420.303zM724.153 147.782c0-16.554-13.468-30.022-30.022-30.022h-364.263c-16.554 0-30.022 13.468-30.022 30.022v30.022h424.307v-30.022z" />
<glyph unicode="&#xe90b;" glyph-name="24-hours" d="M450 360h-85.398c6.676 16.854 20.466 24.376 40.416 35.258 31.644 17.264 74.982 40.906 74.982 114.742 0 49.626-40.374 90-90 90s-90-40.374-90-90c0-16.568 13.432-30 30-30s30 13.432 30 30c0 16.542 13.458 30 30 30s30.4-13.458 30.4-30c0-38.22-15.928-46.692-44.116-62.068-32.194-17.562-76.284-41.614-76.284-117.932 0-16.568 13.432-30 30-30h120c16.568 0 30 13.432 30 30s-13.432 30-30 30zM754 480h-30v90c0 16.568-13.432 30-30 30s-30-13.432-30-30v-90h-60v90c0 16.568-13.432 30-30 30s-30-13.432-30-30v-120c0-16.568 13.432-30 30-30h90v-90c0-16.568 13.432-30 30-30s30 13.432 30 30v90h30c16.568 0 30 13.432 30 30s-13.432 30-30 30zM994 476c-16.568 0-29.6-13.432-29.6-30 0-248.13-204.064-450.4-454.4-450.4-142.042 0-275.59 68.63-359.998 180.8 63.312 0 68.28-0.746 76.252 4.408 75.838-81.458 177.554-124.808 283.746-124.808 214.994 0 394 178.302 394 394 0 75.426-21.836 147.722-62.554 210h92.554c16.568 0 30 13.432 30 30v120c0 16.568-13.432 30-30 30s-30-13.432-30-30v-31.6c-96.448 113.698-240.642 181.6-394 181.6-281.76 0-510-227.938-510-510 0-16.568 13.432-30 30-30s29.6 13.432 29.6 30c0 248.13 202.27 450.4 450.4 450.4 144.232 0 279.232-68.63 363.94-180.8-64.91 0-66.528 1.802-76.124-4.366-76.832 81.37-180.16 124.766-287.816 124.766-215.046 0-390-174.954-390-390 0-76.828 22.076-150.58 63.184-214h-93.184c-16.568 0-30-13.432-30-30v-120c0-16.568 13.432-30 30-30s30 13.432 30 30v31.364c97.124-115.148 239.254-181.364 390-181.364 279.8 0 514 226.040 514 510 0 16.568-13.432 30-30 30zM179.6 450c0 181.962 148.438 330.4 330.4 330.4 184.168 0 334.4-148.438 334.4-330.4 0-181.046-153.354-334.4-334.4-334.4-181.962 0-330.4 150.232-330.4 334.4z" />
<glyph unicode="&#xe90c;" glyph-name="mail" d="M512 840c-115.794 0-210-94.206-210-210 0-71.886 36.252-138.030 96.974-176.934 62.006-39.726 138.12-43.948 208.852-11.406 15.050 6.924 21.64 24.74 14.714 39.792-6.924 15.050-24.738 21.64-39.792 14.716-51.72-23.796-106.908-21.090-151.406 7.418-43.42 27.818-69.342 75.076-69.342 126.414 0 82.71 67.29 150 150 150s150-67.29 150-150c0-16.542-13.458-30-30-30-15.116 0-29.236 11.464-29.996 29.544-0.002 0.152-0.004 0.304-0.004 0.456 0 49.626-40.374 90-90 90s-90-40.374-90-90 40.374-90 90-90c23.032 0 44.062 8.706 59.998 22.988 15.934-14.284 36.968-22.988 60.002-22.988 49.626 0 90 40.374 90 90 0 115.794-94.206 210-210 210zM541.578 625.188c-2.316-14.258-14.678-25.188-29.578-25.188-16.542 0-30 13.458-30 30s13.458 30 30 30c15.382 0 28.080-11.64 29.79-26.57-0.448-2.726-0.522-5.5-0.212-8.242zM961.998 566.048c-0.008 7.758-3.132 15.512-8.786 21.166l-111.212 111.212v231.574c0 16.568-13.432 30-30 30h-600c-16.568 0-30-13.432-30-30v-231.574l-111.212-111.212c-0.104-0.104-0.192-0.22-0.294-0.326-5.622-5.792-8.48-13.418-8.492-20.84 0-0.020-0.002-0.038-0.002-0.058v-539.99c0-49.69 40.432-90 90-90h720c49.678 0 90 40.414 90 90v539.99c0 0.020-0.002 0.038-0.002 0.058zM842 613.574l47.574-47.574-47.574-47.574v95.148zM242 685.99c0 0.006 0 0.014 0 0.020v213.99h540v-213.99c0-0.006 0-0.014 0-0.020v-227.564l-162.426-162.426h-215.148l-162.426 162.426v227.564zM182 613.574v-95.148l-47.574 47.574 47.574 47.574zM122 38.426v455.148l227.574-227.574-227.574-227.574zM164.428-4l239.998 240h215.148l239.998-240h-695.144zM902 38.426l-227.574 227.574 227.574 227.574v-455.148z" />
<glyph unicode="&#xe90d;" glyph-name="agenda-1" d="M574 660c-115.794 0-210-94.206-210-210 0-71.886 36.252-138.030 96.974-176.934 62.006-39.726 138.12-43.948 208.852-11.406 15.050 6.924 21.64 24.74 14.714 39.792-6.924 15.050-24.736 21.642-39.792 14.716-51.72-23.796-106.908-21.090-151.406 7.418-43.42 27.818-69.342 75.076-69.342 126.414 0 82.71 67.29 150 150 150s150-67.29 150-150c0-16.542-13.458-30-30-30-16.724 0-30 13.666-30 30 0 49.626-40.374 90-90 90s-90-40.374-90-90 40.374-90 90-90c23.032 0 44.062 8.706 59.998 22.988 57.792-51.802 150.002-10.574 150.002 67.012 0 115.794-94.206 210-210 210zM603.578 445.188c-2.316-14.258-14.678-25.188-29.578-25.188-16.542 0-30 13.458-30 30s13.458 30 30 30c15.382 0 28.080-11.64 29.79-26.57-0.448-2.726-0.522-5.5-0.212-8.242zM934 840h-30v30c0 49.626-40.374 90-90 90h-634c-49.626 0-90-40.374-90-90v-30c-49.626 0-90-40.374-90-90s40.374-90 90-90v-124c-49.626 0-90-40.374-90-90s40.374-90 90-90v-120c-49.626 0-90-40.374-90-90s40.374-90 90-90v-30c0-49.626 40.374-90 90-90h634c49.626 0 90 40.374 90 90v30h30c49.626 0 90 40.374 90 90v604c0 49.626-40.374 90-90 90zM60 750c0 16.542 13.458 30 30 30h120c16.542 0 30-13.458 30-30s-13.458-30-30-30h-120c-16.542 0-30 13.458-30 30zM60 446c0 16.542 13.458 30 30 30h120c16.542 0 30-13.458 30-30s-13.458-30-30-30c-9.624 0-88.596 0-120 0-16.542 0-30 13.458-30 30zM90 116c-16.542 0-30 13.458-30 30s13.458 30 30 30h120c16.542 0 30-13.458 30-30s-13.458-30-30-30h-120zM844 26c0-16.542-13.458-30-30-30h-634c-16.542 0-30 13.458-30 30v30h60c49.626 0 90 40.374 90 90s-40.374 90-90 90h-60v120h60c49.626 0 90 40.374 90 90s-40.374 90-90 90h-60v124h60c49.626 0 90 40.374 90 90s-40.374 90-90 90h-60v30c0 16.542 13.458 30 30 30h634c16.542 0 30-13.458 30-30v-844zM964 146c0-16.542-13.458-30-30-30h-30v120h60v-90zM964 296h-60v124h60v-124zM964 480h-60v120h60v-120zM964 660h-60v120h30c16.542 0 30-13.458 30-30v-90z" />
<glyph unicode="&#xe90e;" glyph-name="worldwide-1" d="M983.248 645.236c-79.5 186.306-264.24 314.764-473.248 314.764-284.26 0-510-234.514-510-514 0-281.88 228.098-510 510-510 279.792 0 514 226.058 514 510 0 68.832-13.71 135.864-40.752 199.236zM937.518 598.792c-52.546 41.59-120.448 70.606-185.464 89.074-18.454 65.082-47.412 132.994-89.348 185.684 127.662-45.738 229.052-147.108 274.812-274.758zM754.358 475.982c16.376-0.196 29.642-13.56 29.642-29.982s-13.266-29.786-29.642-29.982c-0.116 0.008-0.228 0.032-0.344 0.038-0.502 0.032-0.994 0.012-1.49 0.018-15.848 0.778-28.512 13.872-28.522 29.906 0 0.006 0 0.012 0 0.020s0 0.012 0 0.020c0.010 15.828 12.348 28.794 27.908 29.874 0.072 0 0.142-0.010 0.212-0.010 0.626 0 1.258 0.020 1.892 0.060 0.116 0.008 0.228 0.030 0.344 0.038zM540 895.020c57.494-18.988 110.004-91.074 144.056-191.104-46.008 8.794-94.438 14.082-144.056 15.606v175.498zM540 659.496c56.814-1.846 111.746-8.924 162.646-20.778 8.072-34.478 14.064-71.172 17.588-109.316-23.748-9.65-42.47-29.144-51.074-53.402h-129.16v183.496zM540 416h129.16c8.604-24.26 27.33-43.758 51.080-53.406-3.36-36.604-8.986-72.058-16.694-105.654-34.938-7.944-71.912-13.744-110.134-17.198-9.646 23.758-29.146 42.492-53.412 51.098v125.16zM357.146 873.016c-20.168-25.814-38.498-56.984-54.446-93.084-0.9 0.026-1.794 0.068-2.7 0.068-57.194 0-100.482-53.142-87.802-109.694-49.438-18.702-91.658-42.23-125.106-69.106 45.578 126.022 145.010 226.116 270.054 271.816zM330 690c0-16.542-13.458-30-30-30s-30 13.458-30 30 13.458 30 30 30 30-13.458 30-30zM245.362 618.55c2.684-2.056 5.478-3.972 8.386-5.722-7.334-42.898-11.898-89.99-13.284-136.828h-175.58c17.966 55.646 84.456 108.75 180.478 142.55zM240.454 416c1.458-49.708 6.524-97.294 14.722-141.886-100.336 33.038-171.562 84.486-190.278 141.886h175.556zM86.63 293.476c52.26-41.018 119.29-68.826 183.884-86.636 20.508-74.518 50.438-137.696 87.024-184.232-125.662 45.39-225.5 145.214-270.908 270.868zM480 1.078c-71.238 23.902-118.528 119.236-142.048 190.31 27.81-5.154 56.57-9.062 85.966-11.646 8.338-27.284 29.318-49.090 56.082-58.582v-120.082zM480 290.84c-24.264-8.606-43.764-27.336-53.41-51.092-37.276 3.388-72.984 9.014-106.492 16.546-11.176 49.862-17.848 103.776-19.61 159.706h179.512v-125.16zM480 476h-179.512c1.34 42.84 5.492 85.752 12.096 124.898 30.214 4.248 55.666 23.536 68.49 50.044 32.174 4.638 65.298 7.468 98.926 8.538v-183.48zM480 719.504c-31.422-0.94-62.454-3.344-92.796-7.216-4.628 18.098-14.77 34-28.504 45.848 32.854 73.202 76.108 121.692 121.3 136.798v-175.43zM510 176c-16.422 0-29.786 13.266-29.982 29.64 0.008 0.116 0.032 0.228 0.038 0.346 0.030 0.496 0.010 0.982 0.018 1.472 0.768 15.864 13.876 28.542 29.926 28.542s29.158-12.678 29.926-28.542c0.006-0.492-0.014-0.978 0.018-1.472 0.008-0.118 0.030-0.23 0.038-0.346-0.196-16.374-13.56-29.64-29.982-29.64zM540 0.902v120.258c26.764 9.492 47.742 31.296 56.082 58.58 30.49 2.674 60.32 6.77 89.156 12.186-24.258-71.668-73.398-167.696-145.238-191.024zM663.894 22.636c42.16 52.838 70.73 120.366 88.896 184.898 64.386 17.87 132.166 45.924 184.756 87.102-45.604-126.172-146.52-226.458-273.652-272zM768.556 274.978c5.19 27.516 9.108 55.93 11.688 84.936 27.292 8.336 49.102 29.718 58.596 56.486h120.054c-23.746-70.088-119.632-117.914-190.338-141.422zM838.84 476c-9.494 26.768-31.304 47.75-58.594 56.086-2.666 30.058-6.772 59.506-12.22 88.014 71.616-24.47 166.964-73.112 190.87-144.1h-120.056z" />
<glyph unicode="&#xe90f;" glyph-name="smartphone" d="M782 960h-540c-49.626 0-90-40.374-90-90v-844c0-49.626 40.374-90 90-90h540c49.626 0 90 40.374 90 90v844c0 49.626-40.374 90-90 90zM812 26c0-16.542-13.458-30-30-30h-540c-16.542 0-30 13.458-30 30v90h600v-90zM812 176h-600v604h600v-604zM812 840h-600v30c0 16.542 13.458 30 30 30h540c16.542 0 30-13.458 30-30v-30zM332 536c-33.084 0-60-26.916-60-60s26.916-60 60-60 60 26.916 60 60-26.916 60-60 60zM512 536c-33.084 0-60-26.916-60-60s26.916-60 60-60 60 26.916 60 60-26.916 60-60 60zM692 536c-33.084 0-60-26.916-60-60s26.916-60 60-60 60 26.916 60 60-26.916 60-60 60z" />
<glyph unicode="&#xe910;" glyph-name="mobile-phone" d="M782 840h-30v90c0 16.568-13.432 30-30 30s-30-13.432-30-30v-90h-450c-49.626 0-90-40.374-90-90v-724c0-49.626 40.374-90 90-90h540c49.626 0 90 40.374 90 90v724c0 49.626-40.374 90-90 90zM812 26c0-16.542-13.458-30-30-30h-540c-16.542 0-30 13.458-30 30v724c0 16.542 13.458 30 30 30h540c16.542 0 30-13.458 30-30v-724zM362 116h-60c-16.568 0-30-13.432-30-30s13.432-30 30-30h60c16.568 0 30 13.432 30 30s-13.432 30-30 30zM542 116h-60c-16.568 0-30-13.432-30-30s13.432-30 30-30h60c16.568 0 30 13.432 30 30s-13.432 30-30 30zM722 116h-60c-16.568 0-30-13.432-30-30s13.432-30 30-30h60c16.568 0 30 13.432 30 30s-13.432 30-30 30zM362 236h-60c-16.568 0-30-13.432-30-30s13.432-30 30-30h60c16.568 0 30 13.432 30 30s-13.432 30-30 30zM542 236h-60c-16.568 0-30-13.432-30-30s13.432-30 30-30h60c16.568 0 30 13.432 30 30s-13.432 30-30 30zM722 236h-60c-16.568 0-30-13.432-30-30s13.432-30 30-30h60c16.568 0 30 13.432 30 30s-13.432 30-30 30zM362 356h-60c-16.568 0-30-13.432-30-30s13.432-30 30-30h60c16.568 0 30 13.432 30 30s-13.432 30-30 30zM542 356h-60c-16.568 0-30-13.432-30-30s13.432-30 30-30h60c16.568 0 30 13.432 30 30s-13.432 30-30 30zM722 356h-60c-16.568 0-30-13.432-30-30s13.432-30 30-30h60c16.568 0 30 13.432 30 30s-13.432 30-30 30zM722 720h-420c-16.568 0-30-13.432-30-30v-244c0-16.568 13.432-30 30-30h420c16.568 0 30 13.432 30 30v244c0 16.568-13.432 30-30 30zM692 476h-360v184h360v-184z" />
<glyph unicode="&#xe911;" glyph-name="map" d="M982.856 895.85l-289.847-115.94-353.617 116.578c-6.862 2.266-14.348 1.84-20.534-0.636l-299.999-120c-11.39-4.556-18.858-15.588-18.858-27.856v-719.999c0-21.3 21.562-35.684 41.142-27.854l289.849 115.94 353.467-116.53c1.64-0.55 1.506-0.436 2.68-0.762 2 0 8.392-2.532 18.126 1.4l299.877 119.952c11.388 4.556 18.858 15.586 18.858 27.854v719.999c-0.002 21.188-21.442 35.73-41.144 27.854zM299.999 168.31l-240-96v655.377l240 96v-655.377zM664.001 396.541c-0.346 0.040-0.682 0.106-1.032 0.132-16.466 1.278-32.358 5.122-47.228 11.428-15.256 6.466-32.866-0.654-39.33-15.91-6.468-15.252 0.654-32.862 15.908-39.332 29.386-12.46 61.914-16.982 71.682-15.898v-267.485l-304.001 100.22v369.333c8.306-0.19 16.598-1.026 24.696-2.578 16.294-3.12 31.996 7.564 35.11 23.818 3.118 16.272-7.546 31.992-23.818 35.11-11.808 2.262-23.898 3.494-35.986 3.69v227.45l303.999-100.22v-329.757zM963.998 168.308l-240-96v655.379l240 96v-655.379zM168.974 384.919c-15.718 5.246-32.708-3.256-37.948-18.972l-9.488-28.46c-5.24-15.718 3.254-32.708 18.972-37.948 15.7-5.236 32.704 3.24 37.948 18.972l9.488 28.46c5.242 15.718-3.254 32.708-18.972 37.948zM250.324 537.361c-12.016 11.41-31.002 10.92-42.412-1.094-15.644-16.474-28.402-35.594-37.92-56.826-6.778-15.12-0.016-32.87 15.104-39.648 15.122-6.782 32.87-0.010 39.646 15.102 6.74 15.034 15.714 28.508 26.678 40.054 11.41 12.014 10.918 31.004-1.096 42.412zM546.001 472.193c-4.932 9.262-13.044 30.462-33.614 55.058-10.63 12.71-29.548 14.396-42.258 3.768s-14.398-29.548-3.768-42.258c15.316-18.314 20.346-32.878 26.684-44.776 7.792-14.63 25.966-20.16 40.582-12.374 14.624 7.79 20.164 25.958 12.374 40.582zM833.66 457.197c-13.124 10.124-31.958 7.696-42.080-5.42-9.824-12.73-21.722-23.598-35.364-32.298-13.966-8.91-18.068-27.458-9.158-41.426 8.908-13.964 27.448-18.076 41.428-9.16 19.5 12.438 36.522 27.992 50.594 46.224 10.124 13.116 7.696 31.956-5.42 42.080zM884.532 596.087c-15.518 5.822-32.806-2.042-38.624-17.556l-10.534-28.090c-7.34-19.572 7.154-40.542 28.086-40.542 12.146 0 23.578 7.432 28.094 19.474l10.534 28.090c5.818 15.514-2.042 32.806-17.556 38.624z" />
<glyph unicode="&#xe912;" glyph-name="message" d="M986.94 959.038c-0.28-0.068-0.562-0.124-0.842-0.2l-933.374-254.556c-23.458-6.398-29.912-36.666-11.182-52.098l290.497-239.324-53.486-160.456c-7.796-23.392 14.52-45.754 37.948-37.948l160.456 53.486 239.324-290.497c15.496-18.806 45.71-12.23 52.098 11.182l254.554 933.376c0.080 0.294 0.14 0.592 0.21 0.888 5.266 21.99-14.588 41.366-36.204 36.148zM124.42 661.643l739.545 201.694-496.779-401.697-242.766 200.002zM469.199 328.603l-114.752-38.252 38.252 114.752 399.715 323.217-323.215-399.717zM725.737 60.326l-200.004 242.766 401.701 496.781-201.696-739.547zM93.61 29.372c-11.722 11.712-30.718 11.702-42.428-0.020l-42.406-42.446c-11.71-11.72-11.702-30.716 0.020-42.426 11.188-11.178 31.25-11.168 42.426 0.020l42.408 42.446c11.71 11.72 11.702 30.716-0.020 42.426zM220.826 156.708c-11.722 11.71-30.714 11.702-42.426-0.020l-42.406-42.446c-10.644-10.654-10.634-31.782 0.020-42.426 10.118-10.108 32.312-10.102 42.426 0.020l42.406 42.446c11.71 11.72 11.702 30.716-0.020 42.426z" />
<glyph unicode="&#xe913;" glyph-name="telephone-3" d="M754 960h-484c-148.878 0-270-121.122-270-270v-60c0-49.626 40.374-90 90-90h120c49.626 0 90 40.374 90 90v60c0 16.542 13.458 30 30 30h364c16.542 0 30-13.458 30-30v-60c0-49.626 40.374-90 90-90h120c49.626 0 90 40.374 90 90v60c0 148.878-121.122 270-270 270zM240 630c0-16.542-13.458-30-30-30h-120c-16.542 0-30 13.458-30 30v30h180v-30zM694 780h-364c-39.11 0-72.456-25.084-84.84-60h-183.008c14.602 101.632 102.24 180 207.848 180h484c105.61 0 193.246-78.368 207.848-180h-183.008c-12.384 34.916-45.73 60-84.84 60zM964 630c0-16.542-13.458-30-30-30h-120c-16.542 0-30 13.458-30 30v30h180v-30zM952.546 119.53c-163.422 397.304-153.618 373.902-155.342 376.776-16.172 26.95-45.744 43.694-77.174 43.694h-56.030v30c0 49.626-40.374 90-90 90h-124c-49.626 0-90-40.374-90-90v-30h-56.028c-38.858 0-70.454-26.462-79.194-47.718l-153.282-372.648c-7.628-18.346-11.496-37.722-11.496-57.588v-36.046c0-49.626 40.374-90 90-90h724c49.626 0 90 40.374 90 90v36.046c0 19.87-3.87 39.248-11.454 57.484zM420 570c0 16.542 13.458 30 30 30h124c16.542 0 30-13.458 30-30v-30h-184v30zM904 26c0-16.542-13.458-30-30-30h-724c-16.542 0-30 13.458-30 30v36.046c0 11.92 2.32 23.546 6.94 34.66l152.318 370.298c5.556 8.060 14.86 12.996 24.714 12.996 9.224 0 393.294 0 416.058 0 9.852 0 19.156-4.936 24.712-12.996l152.362-370.406c4.576-11.006 6.896-22.63 6.896-34.552v-36.046zM514 420c-99.252 0-180-80.748-180-180s80.748-180 180-180c99.252 0 180 80.748 180 180s-80.748 180-180 180zM514 120c-66.168 0-120 53.832-120 120s53.832 120 120 120 120-53.832 120-120-53.832-120-120-120zM514 300c-33.084 0-60-26.916-60-60s26.916-60 60-60 60 26.916 60 60-26.916 60-60 60z" />
<glyph unicode="&#xe914;" glyph-name="email" d="M934 868h-604c-49.626 0-90-40.374-90-90v-30h-30c-49.626 0-90-40.374-90-90v-30h-30c-49.746 0-90-40.53-90-90v-420c0-49.63 40.456-90 90-90h600c49.44 0 90 40.256 90 90v30h34c49.626 0 90 40.374 90 90v30h30c49.626 0 90 40.374 90 90v420c0 49.626-40.374 90-90 90zM674.7 568l-263.388-265.862c-11.746-11.858-30.876-11.858-42.624 0l-263.388 265.862h569.4zM60 130.426v398.046l198.094-199.954-198.094-198.092zM102.426 88l197.896 197.894 25.742-25.984c35.248-35.578 92.63-35.574 127.874 0l25.742 25.984 197.894-197.894h-575.148zM720 130.424l-198.094 198.094 198.094 199.954v-398.048zM844 238c0-16.542-13.458-30-30-30h-34v330c0 49.456-40.242 90-90 90h-510v30c0 16.542 13.458 30 30 30h604c16.542 0 30-13.458 30-30v-420zM964 358c0-16.542-13.458-30-30-30h-30v330c0 49.626-40.374 90-90 90h-514v30c0 16.542 13.458 30 30 30h604c16.542 0 30-13.458 30-30v-420z" />
<glyph unicode="&#xe915;" glyph-name="agenda" d="M934 840h-30v30c0 49.626-40.374 90-90 90h-634c-49.626 0-90-40.374-90-90v-30c-49.626 0-90-40.374-90-90s40.374-90 90-90v-124c-49.626 0-90-40.374-90-90s40.374-90 90-90v-120c-49.626 0-90-40.374-90-90s40.374-90 90-90v-30c0-49.626 40.374-90 90-90h634c49.626 0 90 40.374 90 90v30h30c49.626 0 90 40.374 90 90v604c0 49.626-40.374 90-90 90zM60 750c0 16.542 13.458 30 30 30h120c16.542 0 30-13.458 30-30s-13.458-30-30-30h-120c-16.542 0-30 13.458-30 30zM60 446c0 16.542 13.458 30 30 30h120c16.542 0 30-13.458 30-30s-13.458-30-30-30c-9.624 0-88.596 0-120 0-16.542 0-30 13.458-30 30zM90 116c-16.542 0-30 13.458-30 30s13.458 30 30 30h120c16.542 0 30-13.458 30-30s-13.458-30-30-30h-120zM844 26c0-16.542-13.458-30-30-30h-634c-16.542 0-30 13.458-30 30v30h60c49.626 0 90 40.374 90 90s-40.374 90-90 90h-60v120h60c49.626 0 90 40.374 90 90s-40.374 90-90 90h-60v124h60c49.626 0 90 40.374 90 90s-40.374 90-90 90h-60v30c0 16.542 13.458 30 30 30h634c16.542 0 30-13.458 30-30v-844zM964 146c0-16.542-13.458-30-30-30h-30v120h60v-90zM964 296h-60v120h60v-120zM964 476h-60v124h60v-124zM964 660h-60v120h30c16.542 0 30-13.458 30-30v-90zM634 540c49.626 0 90 40.374 90 90v60c0 49.626-40.374 90-90 90-115.794 0-210-94.206-210-210v-244c0-115.794 94.206-210 210-210 49.626 0 90 40.374 90 90v60c0 49.626-40.374 90-90 90-16.542 0-30 13.458-30 30v124c0 16.542 13.458 30 30 30zM634 296c16.542 0 30-13.458 30-30v-60c0-16.542-13.458-30-30-30-82.71 0-150 67.29-150 150v244c0 82.71 67.29 150 150 150 16.542 0 30-13.458 30-30v-60c0-16.542-13.458-30-30-30-49.626 0-90-40.374-90-90v-124c0-49.626 40.374-90 90-90z" />
<glyph unicode="&#xe916;" glyph-name="worldwide" d="M903.88 519.758c-5.256 243.794-207.936 440.232-453.88 440.232-248.718 0-450-201.264-450-450 0-248.718 201.266-450 450-450 84.618 0 168.062 23.242 238.48 65.946l99.446-174.782c11.484-20.184 40.664-20.196 52.15 0.002l158.804 279.182c0.128 0.224 0.254 0.452 0.376 0.678 16.188 30.254 24.744 64.478 24.744 98.976 0 83.65-49.17 156.026-120.12 189.766zM305.682 872.308c-31.492-43.966-53.556-97.756-68.108-149.89-51.794-14.458-105.816-36.522-149.894-68.092 39.64 99.144 118.854 178.346 218.002 217.982zM222.34 654.922c-6.478-36.796-10.476-75.376-11.82-114.932h-144.462c22.66 56.648 98.34 94.974 156.282 114.932zM210.52 479.99c1.344-39.554 5.34-78.134 11.818-114.932-57.932 19.954-133.62 58.28-156.282 114.932h144.464zM87.68 365.656c44.078-31.568 98.1-53.632 149.894-68.092 14.546-52.108 36.606-105.908 68.108-149.89-99.148 39.636-178.362 118.838-218.002 217.982zM420 126.048c-56.646 22.66-94.972 98.338-114.932 156.282 36.798-6.478 75.378-10.474 114.932-11.818v-144.464zM420 330.532c-46.514 1.684-91.368 7.276-133.002 16.456-9.182 41.634-14.774 86.488-16.456 133.002h149.458v-149.458zM420 539.992h-149.458c1.684 46.514 7.276 91.368 16.456 133.004 41.634 9.178 86.488 14.77 133.002 16.454v-149.458zM420 749.47c-39.554-1.344-78.134-5.34-114.932-11.818 19.954 57.93 58.28 133.62 114.932 156.282v-144.464zM816.45 653.296c-44.206 31.59-98.718 53.904-150.804 68.52-15.096 52.614-37.916 106.54-70.030 150.56 100.596-39.746 180.904-119.392 220.834-219.080zM837.796 539.99h-144.336c-1.384 39.216-5.478 77.522-12.102 114.128 57.354-19.852 133.478-58.056 156.438-114.128zM480 894.048c57.538-22.544 97.192-98.764 117.784-156.788-37.72 6.718-77.276 10.844-117.784 12.212v144.576zM480 689.452c47.698-1.716 93.746-7.53 136.484-17.074 9.448-41.534 15.208-86.18 16.952-132.386h-153.436v149.46zM633.442 480.39c-0.602-16.354-1.698-32.99-3.268-48.97-14.454-26.092-23.512-55.564-25.662-86.908-38.628-7.63-81.434-12.424-124.51-13.964v149.842h153.44zM480 125.876v144.642c40.616 1.362 81.164 5.44 118.814 11.934-28.226-80.872-72.476-138.668-118.814-156.576zM596.394 147.286c15.024 20.26 28.618 43.538 40.516 69.286l21.882-38.458c-19.706-12.080-40.62-22.394-62.398-30.828zM946.528 259.654l-132.532-232.992-129.132 226.958c-0.074 0.13-0.148 0.26-0.224 0.39-13.504 22.92-20.64 49.194-20.64 75.982 0 82.71 67.29 150 150 150s150-67.29 150-150c0-24.53-6.042-48.844-17.472-70.338zM814 419.992c-49.626 0-90-40.374-90-90s40.374-90 90-90 90 40.374 90 90-40.374 90-90 90zM814 299.992c-16.542 0-30 13.458-30 30s13.458 30 30 30 30-13.458 30-30-13.458-30-30-30z" />
<glyph unicode="&#xe917;" glyph-name="laptop" d="M1024 570v300c0 49.43-40.244 90-90 90h-480c-49.63 0-90-40.454-90-90v-150h-214c-49.626 0-90-40.374-90-90v-454h-30c-16.568 0-30-13.432-30-30v-60c0-82.71 67.29-150 150-150h724c82.71 0 150 67.29 150 150v60c0 16.568-13.432 30-30 30h-30v309.16c35.248 12.502 60 46.108 60 84.84zM921.574 900l-206.362-206.36c-11.7-11.696-30.726-11.696-42.426 0l-206.36 206.36h455.148zM784 677.574l137.574-137.574h-455.148l137.574 137.574 26.362-26.36c35.088-35.090 92.186-35.092 127.278 0l26.36 26.36zM424 857.574l137.574-137.574-137.574-137.574v275.148zM120 630c0 16.542 13.458 30 30 30h214v-90c0-49.63 40.456-90 90-90h450v-304h-210c-16.568 0-30-13.432-30-30v-30h-304v30c0 16.568-13.432 30-30 30h-210v454zM964 86c0-49.626-40.374-90-90-90h-724c-49.626 0-90 40.374-90 90v30h240v-30c0-16.568 13.432-30 30-30h364c16.568 0 30 13.432 30 30v30h240v-30zM826.426 720l137.574 137.574v-275.148l-137.574 137.574z" />
<glyph unicode="&#xe918;" glyph-name="arroba" d="M510 960c-281.88 0-510-228.1-510-510 0-279.79 226.050-514 510-514 281.288 0 514 231.828 514 514 0 284.26-234.514 510-514 510zM510-4.4c-248.13 0-450.4 204.064-450.4 454.4 0 248.13 202.27 450.4 450.4 450.4 250.336 0 454.4-202.27 454.4-450.4 0-250.336-204.064-454.4-454.4-454.4zM510 780c-181.962 0-330-148.038-330-330 0-182.646 147.734-334 330-334 73.748 0 148.35 24.786 204.678 68.002 13.146 10.086 15.626 28.918 5.54 42.064s-28.92 15.626-42.064 5.54c-46.058-35.338-107.348-56.006-168.154-56.006-148.878 0-270 123.316-270 274.4 0 148.878 121.122 270.4 270 270.4 151.084 0 274-121.522 274-270.4v-30c0-33.084-26.916-60-60-60s-60 26.916-60 60c0 14.86 0 134.328 0 150 0 16.568-13.432 30-30 30s-30-13.432-30-30v-1.902c-27.092 20.658-59.864 31.902-94 31.902-82.71 0-150-67.29-150-150s67.29-150 150-150c44.846 0 86.118 19.244 115.47 51.624 21.696-31.168 57.76-51.624 98.53-51.624 66.168 0 120 53.832 120 120v30c0 182.508-151.58 330-334 330zM510 359.6c-49.626 0-90 40.774-90 90.4s40.374 90.4 90 90.4c50.954 0 94-41.614 94-90.4s-43.046-90.4-94-90.4z" />
<glyph unicode="&#xe919;" glyph-name="chat-1" d="M934.002 658.017h-210v150c0 49.626-40.374 90-90 90h-544.001c-49.626 0-90-40.374-90-90v-360.001c0-49.626 40.374-90 90-90h30v-90c0-24.026 26.836-38.162 46.64-24.962l133.36 88.906v-123.944c0-49.626 40.374-90 90-90h294.917l172.442-114.962c19.832-13.222 46.64 0.93 46.64 24.962v90h30c49.626 0 90 40.374 90 90v360.001c0.002 49.626-40.372 90-89.998 90zM313.277 412.923c-0.028-0.020-0.058-0.038-0.086-0.056l-133.19-88.794v63.944c0 16.568-13.432 30-30 30h-60c-16.542 0-30 13.458-30 30v360.001c0 16.542 13.458 30 30 30h544.001c16.542 0 30-13.458 30-30v-360.001c0-16.542-13.458-30-30-30h-304.001c-5.806 0-11.806-1.796-16.724-5.094zM964.002 208.017c0-16.542-13.458-30-30-30h-60c-16.568 0-30-13.432-30-30v-63.944l-133.36 88.906c-4.928 3.286-10.718 5.038-16.64 5.038h-304.001c-16.542 0-30 13.458-30 30v150h274.001c49.626 0 90 40.374 90 90v150h210c16.542 0 30-13.458 30-30v-360.001zM390.001 598.017h-240c-16.568 0-30-13.432-30-30s13.432-30 30-30h240c16.568 0 30 13.432 30 30s-13.432 30-30 30zM574.001 718.018h-424.001c-16.568 0-30-13.432-30-30s13.432-30 30-30h424.001c16.568 0 30 13.432 30 30s-13.432 30-30 30z" />
<glyph unicode="&#xe91a;" glyph-name="mouse" d="M719.898 840c-48.358 83.834-142.592 130.754-240.398 117.854-118.294-15.604-207.5-121.718-207.5-246.83v-261.024c0-49.626-40.374-90-90-90s-90 40.374-90 90v480c0 16.568-13.432 30-30 30s-30-13.432-30-30v-480c0-82.71 67.29-150 150-150s150 67.29 150 150v261.024c0 95.124 66.784 175.664 155.346 187.346 61.016 8.044 120.158-14.838 159.256-58.818-141.74-8.010-254.602-125.842-254.602-269.552v-364c0-148.878 121.122-270 270-270h60c148.878 0 270 121.122 270 270v364c0 145.508-116.928 270-272.102 270zM692 660c16.542 0 30-13.458 30-30v-60c0-16.542-13.458-30-30-30s-30 13.458-30 30v60c0 16.542 13.458 30 30 30zM452 570c0 115.794 94.206 210 210 210v-65.16c-34.918-12.384-60-45.73-60-84.84v-60c0-39.11 25.082-72.456 60-84.84v-64.158c-55.616 3.602-106.766 17.164-146.35 39.156-40.45 22.472-63.65 51.574-63.65 79.842v30zM932 206c0-115.794-94.206-210-210-210h-60c-115.794 0-210 94.206-210 210v224.746c54.306-43.252 140.81-70.746 240-70.746s185.694 27.494 240 70.746v-224.746zM932 540c0-28.268-23.2-57.37-63.65-79.84-39.584-21.992-90.734-35.554-146.35-39.156v64.156c34.918 12.384 60 45.73 60 84.84v60c0 39.11-25.082 72.456-60 84.84v65.16c115.794 0 210-94.206 210-210v-30z" />
<glyph unicode="&#xe91b;" glyph-name="telephone-2" d="M947.926 200.515l-126.714 131.11c-0.118 0.122-0.238 0.244-0.358 0.364-35.172 35.172-92.096 35.176-127.27 0l-57.852-57.85c-26.642-26.644-69.768-26.648-96.414 0-0.012 0.012-0.024 0.024-0.036 0.036l-201.186 196.428c-26.644 26.644-26.648 69.77 0 96.416l57.85 57.85c35.090 35.088 35.090 92.182 0 127.27l-127.27 127.27c-35.090 35.086-92.182 35.086-127.27 0-0.012-0.012-42.432-42.434-42.422-42.422-0.010-0.012-3.846-3.846-3.856-3.858-126.816-126.814-126.862-332.079 0.020-458.961l347.753-342.995c126.534-126.534 331.453-127.006 458.495-0.446 0.696 0.642 45.656 42.054 46.326 42.724 35.018 35.022 35.086 91.962 0.202 127.066zM183.832 836.986c11.696 11.696 30.726 11.696 42.422 0l127.27-127.27c11.724-11.726 11.726-30.698 0-42.424l-21.21-21.21-169.694 169.692 21.212 21.212zM485.305 73.614l-347.753 342.995c-97.996 97.998-102.644 252.53-16.554 355.941l169.098-169.098c-44.29-50.282-42.448-127.246 5.616-175.31l201.222-196.464c48.094-48.056 124.812-50.034 175.24-5.546l169.084-169.084c-104.432-86.75-258.033-81.352-355.951 16.564zM905.656 116.236l-20.16-18.578-170.7 170.7 21.21 21.21c11.686 11.684 30.548 11.72 42.274 0.15 0.234-0.242 126.782-131.182 127.020-131.418 11.578-11.58 11.696-30.342 0.356-42.064zM514.039 959.96c-16.566 0-29.998-13.432-29.998-29.998s13.432-29.998 29.998-29.998c248.112 0 449.965-201.854 449.965-449.965 0-16.566 13.432-29.998 29.998-29.998s29.998 13.43 29.998 29.998c0 281.857-228.082 509.961-509.961 509.961zM514.039 839.97c-16.566 0-29.998-13.432-29.998-29.998s13.432-29.998 29.998-29.998c181.948 0 329.975-148.026 329.975-329.975 0-16.566 13.432-29.998 29.998-29.998s29.998 13.43 29.998 29.998c0 215.030-174.942 389.971-389.971 389.971zM514.039 719.978c-16.566 0-29.998-13.432-29.998-29.998s13.432-29.998 29.998-29.998c115.786 0 209.984-94.198 209.984-209.984 0-16.566 13.432-29.998 29.998-29.998s29.998 13.43 29.998 29.998c0 148.868-121.112 269.979-269.979 269.979zM514.039 599.989c-16.566 0-29.998-13.432-29.998-29.998s13.432-29.998 29.998-29.998c49.622 0 89.994-40.37 89.994-89.994 0-16.566 13.432-29.998 29.998-29.998s29.998 13.43 29.998 29.998c-0.002 82.704-67.286 149.99-149.99 149.99z" />
<glyph unicode="&#xe91c;" glyph-name="telephone-1" d="M997.656 204.733l-127.298 127.298c-35.096 35.094-92.204 35.094-127.298 0l-57.862-57.862c-26.588-26.588-69.852-26.58-96.43-0.010l-250.8 251.014c-26.65 26.65-26.654 69.784 0 96.438 9.32 9.32 36.082 36.082 57.862 57.862 34.942 34.94 35.43 91.87-0.034 127.33l-127.264 126.864c-35.096 35.094-92.202 35.094-127.204 0.092-26.192-25.964-34.64-34.34-46.384-45.982-126.56-126.558-126.56-332.485-0.006-459.039l397.385-397.593c126.856-126.858 332.177-126.868 459.043 0l46.292 46.29c35.096 35.096 35.096 92.2 0 127.296zM183.666 891.236c11.698 11.698 30.73 11.7 42.466-0.032l127.264-126.864c11.726-11.726 11.726-30.704 0-42.432l-21.218-21.216-169.62 169.62 21.108 20.924zM534.761 73.572l-397.387 397.597c-97.916 97.916-103.298 251.666-16.552 356.013l169.128-169.128c-44.44-50.378-42.588-127.144 5.574-175.306l250.792-251.002c0.002-0.002 0.006-0.006 0.008-0.008 48.11-48.112 124.872-50.084 175.312-5.584l169.132-169.132c-104.014-86.596-257.419-82.038-356.009 16.552zM955.226 119.868l-21.218-21.218-169.73 169.732 21.214 21.216c11.7 11.698 30.734 11.7 42.434 0l127.298-127.298c11.7-11.7 11.7-30.736 0.002-42.432z" />
<glyph unicode="&#xe91d;" glyph-name="telephone" d="M948.1 204.457l-127.304 127.3c-35.182 35.182-92.122 35.184-127.306 0l-57.866-57.866c-26.654-26.652-69.788-26.654-96.444 0-0.012 0.012-0.024 0.024-0.036 0.036l-201.24 200.566c-26.652 26.652-26.656 69.788 0 96.444l57.864 57.866c35.182 35.18 35.184 92.122 0 127.306l-127.306 127.306c-35.182 35.182-92.122 35.184-127.304 0-0.166-0.166-42.434-42.434-42.434-42.434-123.812-114.288-137.87-328.915-3.836-462.947l347.849-347.175c121.212-121.212 326.139-132.928 462.921 3.852 0 0 0.008 0.008 0.010 0.010l42.43 42.43c35.1 35.1 35.1 92.208 0 127.308zM183.6 840.976c11.698 11.698 30.734 11.7 42.434 0l127.306-127.306c11.726-11.726 11.726-30.706 0-42.434l-21.218-21.218-169.74 169.74 21.218 21.218zM485.153 73.312l-347.847 347.173c-97.314 97.314-102.816 252.184-16.548 356.027l169.13-169.13c-44.312-50.23-42.752-126.986 5.62-175.36l201.24-200.566c48.092-48.092 124.854-50.106 175.324-5.584l169.142-169.142c-103.424-86.102-257.991-81.486-356.059 16.58zM905.668 119.584l-21.218-21.218-169.74 169.74 21.216 21.216c11.728 11.728 30.706 11.728 42.436 0l127.306-127.304c11.7-11.698 11.7-30.736 0-42.434zM933.982 959.986h-360.073c-49.636 0-90.018-40.382-90.018-90.018v-240.048c0-49.636 40.382-90.018 90.018-90.018h30.006v-90.018c0-26.654 32.386-40.054 51.222-21.218l111.236 111.236h167.608c49.636 0 90.018 40.382 90.018 90.018v240.046c0.002 49.636-40.38 90.020-90.016 90.020zM963.988 629.919c0-16.546-13.46-30.006-30.006-30.006h-180.036c-7.958 0-15.59-3.16-21.216-8.788l-68.802-68.802v47.584c0 16.572-13.434 30.006-30.006 30.006h-60.012c-16.546 0-30.006 13.46-30.006 30.006v240.048c0 16.546 13.46 30.006 30.006 30.006h360.073c16.546 0 30.006-13.46 30.006-30.006v-240.048zM873.97 839.96h-240.048c-16.572 0-30.006-13.434-30.006-30.006s13.434-30.006 30.006-30.006h240.048c16.572 0 30.006 13.434 30.006 30.006s-13.434 30.006-30.006 30.006zM753.947 719.936h-120.024c-16.572 0-30.006-13.434-30.006-30.006s13.434-30.006 30.006-30.006h120.024c16.572 0 30.006 13.434 30.006 30.006s-13.436 30.006-30.006 30.006z" />
<glyph unicode="&#xe91e;" glyph-name="link" d="M962.578 898.72c-81.558 81.556-215.488 81.564-297.053 0l-307.055-307.087c-0.004-0.004-0.006-0.006-0.010-0.010l-297.039-297.041c-81.896-81.896-81.896-215.154 0-297.051 81.896-81.894 215.152-81.898 297.051 0l297.031 297.033c0.006 0.006 0.014 0.014 0.020 0.020l307.053 307.083c81.898 81.898 81.898 215.154 0.002 297.053zM316.037 39.968c-58.5-58.496-153.682-58.496-212.18 0-58.498 58.498-58.498 153.68 0 212.18l297.053 297.051c66.94 66.94 178.594 56.098 231.258-23.348l-43.91-43.914c-26.862 56.11-101.206 68.534-144.91 24.826l-297.053-297.051c-35.098-35.098-35.098-92.208 0-127.308 35.098-35.098 92.208-35.1 127.308 0l162.772 162.774c22.482-8.004 46.916-12.352 72.782-12.088l-193.12-193.122zM528.215 421.891c-11.698-11.7-30.734-11.698-42.436 0-11.728 11.728-11.728 30.706 0 42.436 11.7 11.7 30.736 11.698 42.436 0 11.726-11.726 11.728-30.706 0-42.436zM381.193 274.869l-150.028-150.028c-11.7-11.7-30.736-11.7-42.436 0-11.698 11.7-11.7 30.736 0 42.436l150.062 150.062c11.948-15.944 25.906-30.082 42.402-42.47zM920.142 644.101l-307.051-307.079c-0.002-0.002-0.004-0.004-0.006-0.004l-0.010-0.010c-66.994-66.984-178.678-55.958-231.252 23.366l43.912 43.912c26.854-56.1 101.186-68.54 144.902-24.84 0.004 0.004 0.008 0.006 0.012 0.010s0.006 0.006 0.010 0.010l307.049 307.073c35.098 35.098 35.098 92.208 0 127.306s-92.21 35.098-127.31-0.002l-172.774-172.802c-23.166 8.248-47.626 12.342-72.792 12.088l203.13 203.154c58.1 58.1 154.070 58.106 212.18 0 58.498-58.5 58.498-153.682 0-212.182zM632.803 611.353l160.032 160.058c11.7 11.7 30.736 11.698 42.436 0 11.7-11.7 11.7-30.736 0-42.438l-160.070-160.084c-11.868 15.834-25.8 29.996-42.398 42.464z" />
<glyph unicode="&#xe91f;" glyph-name="placeholder" d="M512 960c-198.504 0-360-161.496-360-360 0-67.068 18.578-132.52 53.738-189.304l285.77-460.514c5.474-8.822 15.118-14.182 25.49-14.182 0.080 0 0.158 0 0.238 0 10.462 0.082 20.126 5.608 25.5 14.584l278.486 464.976c33.22 55.584 50.778 119.362 50.778 184.44 0 198.504-161.496 360-360 360zM769.732 446.364l-253.188-422.736-259.81 418.68c-29.266 47.264-45.134 101.792-45.134 157.692 0 165.42 134.98 300.4 300.4 300.4s300.2-134.98 300.2-300.4c0-54.242-14.822-107.376-42.468-153.636zM512 780c-99.252 0-180-80.748-180-180 0-98.618 79.434-180 180-180 101.806 0 180 82.466 180 180 0 99.252-80.748 180-180 180zM512 479.6c-66.514 0-120.4 54.066-120.4 120.4 0 66.168 54.232 120.4 120.4 120.4s120.2-54.232 120.2-120.4c0-65.366-52.632-120.4-120.2-120.4z" />
<glyph unicode="&#xe920;" glyph-name="chat" d="M510 928c-284.79 0-510-203.886-510-450 0-104.844 41.486-206.42 116.992-286.898 14.94-61.604-3.198-126.882-48.204-171.888-18.816-18.816-5.498-51.214 21.212-51.214 85.488 0 167.888 33.5 229.148 92.542 60.584-21.602 124.688-32.542 190.852-32.542 285.58 0 514 204.484 514 450 0 245.654-228.578 450-514 450zM510 87.6c-65.442 0-128.534 12.312-187.524 35.804-11.586 4.612-24.814 1.582-33.232-7.618-36.236-39.598-83.342-67.21-134.654-79.902 28.272 54.178 35.498 118.044 18.288 178.55-1.356 4.772-3.876 9.132-7.332 12.69-68.062 70.106-105.946 159.202-105.946 250.876 0 215.046 202.27 390.4 450.4 390.4 250.336 0 454.4-175.354 454.4-390.4s-204.064-390.4-454.4-390.4zM270 568c-49.626 0-90-40.374-90-90s40.374-90 90-90 90 40.374 90 90-40.374 90-90 90zM270 448c-16.542 0-30 13.458-30 30s13.458 30 30 30 30-13.458 30-30-13.458-30-30-30zM510 568c-49.626 0-90-40.374-90-90s40.374-90 90-90 90 40.374 90 90-40.374 90-90 90zM510 448c-16.542 0-30 13.458-30 30s13.458 30 30 30 30-13.458 30-30-13.458-30-30-30zM754 568c-49.626 0-90-40.374-90-90s40.374-90 90-90 90 40.374 90 90-40.374 90-90 90zM754 448c-16.542 0-30 13.458-30 30s13.458 30 30 30 30-13.458 30-30-13.458-30-30-30z" />
<glyph unicode="&#xe921;" glyph-name="printer" d="M964 654.84v35.16c0 49.626-40.374 90-90 90h-30c0 26.468-6.468 48.894-26.36 68.786l-84.854 84.854c-16.998 16.998-39.598 26.36-63.638 26.36h-459.148c-16.568 0-30-13.432-30-30v-150h-30c-49.626 0-90-40.374-90-90v-35.16c-34.918-12.384-60-45.73-60-84.84v-304c0-49.626 40.374-90 90-90h90v-210c0-16.568 13.432-30 30-30h604c16.568 0 30 13.432 30 30v210h90c49.626 0 90 40.374 90 90v304c0 39.11-25.082 72.456-60 84.84zM844 720h30c16.542 0 30-13.458 30-30v-30h-60v60zM664 900c5.674 0 16.6 0.974 26.36-8.786l84.854-84.854c9.59-9.59 8.786-20.166 8.786-26.36h-120v120zM240 900h364v-150c0-16.568 13.432-30 30-30h150v-60h-544v240zM120 690c0 16.542 13.458 30 30 30h30v-60h-60v30zM784-4h-544v300h544v-300zM964 266c0-16.542-13.458-30-30-30h-90v60h30c16.568 0 30 13.432 30 30s-13.432 30-30 30h-724c-16.568 0-30-13.432-30-30s13.432-30 30-30h30v-60h-90c-16.542 0-30 13.458-30 30v304c0 16.542 13.458 30 30 30h844c16.542 0 30-13.458 30-30v-304zM270 540h-120c-16.568 0-30-13.432-30-30s13.432-30 30-30h120c16.568 0 30 13.432 30 30s-13.432 30-30 30zM694 236h-364c-16.568 0-30-13.432-30-30s13.432-30 30-30h364c16.568 0 30 13.432 30 30s-13.432 30-30 30zM694 116h-364c-16.568 0-30-13.432-30-30s13.432-30 30-30h364c16.568 0 30 13.432 30 30s-13.432 30-30 30z" />
<glyph unicode="&#xe922;" glyph-name="calendar" d="M934 840h-30v30c0 49.626-40.374 90-90 90s-90-40.374-90-90v-30h-120v30c0 49.626-40.374 90-90 90s-90-40.374-90-90v-30h-124v30c0 49.626-40.374 90-90 90s-90-40.374-90-90v-30h-30c-49.626 0-90-40.374-90-90 0-4.352 0-712.496 0-724 0-49.626 40.374-90 90-90h844c49.626 0 90 40.374 90 90 0 5.526 0 714.252 0 724 0 49.626-40.374 90-90 90zM784 870c0 16.542 13.458 30 30 30s30-13.458 30-30v-120c0-16.542-13.458-30-30-30s-30 13.458-30 30v120zM484 870c0 16.542 13.458 30 30 30s30-13.458 30-30v-120c0-16.542-13.458-30-30-30s-30 13.458-30 30v120zM180 870c0 16.542 13.458 30 30 30s30-13.458 30-30v-120c0-16.542-13.458-30-30-30s-30 13.458-30 30v120zM964 26c0-16.542-13.458-30-30-30h-844c-16.542 0-30 13.458-30 30v510h904v-510zM964 596h-904v154c0 16.542 13.458 30 30 30h30v-30c0-49.626 40.374-90 90-90s90 40.374 90 90v30h124v-30c0-49.626 40.374-90 90-90s90 40.374 90 90v30h120v-30c0-49.626 40.374-90 90-90s90 40.374 90 90v30h30c16.542 0 30-13.458 30-30v-154zM874 476h-724c-16.568 0-30-13.432-30-30v-360c0-16.568 13.432-30 30-30h724c16.568 0 30 13.432 30 30v360c0 16.568-13.432 30-30 30zM300 116h-120v120h120v-120zM300 296h-120v120h120v-120zM484 116h-124v120h124v-120zM484 296h-124v120h124v-120zM664 116h-120v120h120v-120zM664 296h-120v120h120v-120zM844 116h-120v120h120v-120zM844 296h-120v120h120v-120z" />
<glyph unicode="&#xe923;" glyph-name="customer-service" d="M791.406 228.285l-63.112 28.474c69.76 60.552 113.944 149.832 113.944 249.24v124c0 181.962-148.038 330.001-330.001 330.001s-329.601-148.038-329.601-330.001v-124c0-49.626 39.974-90 89.6-90h50.29c10.056-21.11 23.934-40.282 40.11-56.808 0-17.908 0-50.882-0.002-72.416l-130.042-58.49c-47.318-16.676-74.84-67.19-63.080-116.044l29.634-151.982c2.748-14.090 15.090-24.258 29.446-24.258h566.813c14.354 0 26.698 10.168 29.446 24.258l29.634 151.982c11.76 48.854-15.762 99.368-63.080 116.044zM666.587 284.599l-4.348 1.962c-0.002 21.532-0.002 54.666-0.002 72.632 16.176 16.526 29.656 35.698 39.71 56.808h50.29c5.114 0 10.122 0.452 15.006 1.276-18.876-54.106-54.51-100.41-100.656-132.678zM782.64 629.999v-124c0-16.542-13.858-30-30.4-30h-30c0 14.986 0 138.188 0 154v30h30c16.54 0 30.4-13.458 30.4-30zM302.639 475.999h-30.4c-16.542 0-30 13.458-30 30v124c0 16.542 13.458 30.4 30 30.4h30.4c-0.766-57.434 0-106.398 0-184.4zM322.527 719.6c-54.938 0-55.512 0.774-65.296-0.876 36.784 105.426 137.196 181.276 255.006 181.276s218.22-75.85 255.006-181.276c-9.79 1.652-10.396 0.876-65.296 0.876-34.246 71.894-107.204 120.4-189.71 120.4-83.604 0-155.946-49.514-189.71-120.4zM632.191 719.958c-28.146-37.36-72.63-59.958-119.954-59.958h-146.982c13.936 68.384 74.544 120 146.982 120 48.99 0 92.562-23.61 119.954-60.042zM362.237 505.999v94h150c55.478 0 108.166 22.182 146.964 60.094 1.988-9.726 3.436-19.79 3.436-30.094v-124c0-82.71-67.69-150-150.4-150s-150 67.29-150 150zM796.074 125.956c-0.126-0.508-0.24-1.020-0.34-1.536l-25.042-128.422h-517.385l-25.042 128.424c-0.1 0.514-0.214 1.026-0.34 1.536-4.858 19.43 6.22 39.612 25.222 45.946 2.15 0.718-7.446-3.53 151.42 68.146 10.748 4.85 17.658 15.544 17.662 27.334 0.002 5.52 0.004 26.908 0.004 48.904 27.294-13 57.81-20.29 90-20.29s63.108 7.29 90.4 20.29c0-22.278 0.002-43.936 0.004-49.12 0.002-5.138 0.918-10.068 3.288-14.396-29.2-10.838-60.764-16.774-93.692-16.774-16.568 0-30-13.432-30-30s13.432-30 30-30c57.516 0 111.634 14.804 158.766 40.782 105.074-47.406 97.77-44.184 99.846-44.876 19.008-6.334 30.086-26.516 25.228-45.948z" />
<glyph unicode="&#xe924;" glyph-name="responsive" d="M934 720h-150v150c0 49.626-40.374 90-90 90h-604c-49.626 0-90-40.374-90-90v-844c0-49.626 40.374-90 90-90 3.39 0 821.142 0 844 0 49.626 0 90 40.374 90 90v604c0 49.626-40.374 90-90 90zM60 870c0 16.542 13.458 30 30 30h604c16.542 0 30-13.458 30-30v-30h-664v30zM90-4c-16.542 0-30 13.458-30 30v90h424v-90c0-10.516 1.83-20.61 5.16-30h-399.16zM484 630v-454h-424v604h664v-60h-150c-49.626 0-90-40.374-90-90zM964 26c0-16.542-13.458-30-30-30h-360c-16.542 0-30 13.458-30 30v30h420v-30zM964 116h-420v424h420v-424zM964 600h-420v30c0 16.542 13.458 30 30 30h360c16.542 0 30-13.458 30-30v-30zM390 720h-240c-16.568 0-30-13.432-30-30v-180c0-16.568 13.432-30 30-30h240c16.568 0 30 13.432 30 30v180c0 16.568-13.432 30-30 30zM360 540h-180v120h180v-120zM270 420h-120c-16.568 0-30-13.432-30-30s13.432-30 30-30h120c16.568 0 30 13.432 30 30s-13.432 30-30 30zM874 480h-240c-16.568 0-30-13.432-30-30s13.432-30 30-30h240c16.568 0 30 13.432 30 30s-13.432 30-30 30zM754 360h-120c-16.568 0-30-13.432-30-30s13.432-30 30-30h120c16.568 0 30 13.432 30 30s-13.432 30-30 30z" />
<glyph unicode="&#xe925;" glyph-name="wall-clock" d="M510 960c-281.878 0-510-228.098-510-510 0-279.79 226.050-514 510-514 280.896 0 514 231.418 514 514 0 284.26-234.514 510-514 510zM510-4.4c-248.13 0-450.4 204.064-450.4 454.4 0 248.13 202.27 450.4 450.4 450.4 250.336 0 454.4-202.27 454.4-450.4 0-250.336-204.064-454.4-454.4-454.4zM556.426 450l98.786 98.786c11.716 11.716 11.716 30.712 0 42.428-11.714 11.716-30.71 11.716-42.426 0l-120-120c-11.716-11.716-11.716-30.71 0-42.426l120-120c11.714-11.714 30.71-11.716 42.426 0s11.716 30.71 0 42.426l-98.786 98.786zM510 840c-214.816 0-390-174.794-390-390 0-215.906 175.726-394 390-394 214.988 0 394 178.294 394 394 0 214.15-177.964 390-394 390zM765.174 237.252l-17.83 17.83c-11.714 11.716-30.71 11.716-42.426 0s-11.716-30.71 0-42.426l17.828-17.828c-50.902-42.772-114.21-70.958-182.748-77.394v28.566c0 16.568-13.432 30-30 30s-30-13.432-30-30v-28.606c-68.272 6.258-130.608 33.632-180.554 75.624l19.636 19.636c11.716 11.716 11.716 30.71 0 42.426-11.714 11.716-30.71 11.716-42.426 0l-19.48-19.48c-42.166 50.858-69.656 114.566-75.828 184.4h28.654c16.568 0 30 13.432 30 30s-13.432 30-30 30h-28.622c6.204 68.5 33.414 131.024 75.142 181.054l20.136-20.136c11.714-11.714 30.71-11.716 42.426 0s11.716 30.71 0 42.426l-20.136 20.136c50.030 41.728 112.554 68.938 181.054 75.142v-28.622c0-16.568 13.432-30 30-30s30 13.432 30 30v28.654c69.834-6.172 133.542-33.662 184.398-75.83l-19.478-19.478c-18.958-18.958-5.274-51.214 21.212-51.214 7.678 0 15.356 2.928 21.212 8.786l19.636 19.636c41.994-49.946 69.368-112.284 75.624-180.554h-28.604c-16.568 0-30-13.432-30-30s13.432-30 30-30h28.568c-6.436-68.538-34.622-131.846-77.394-182.748z" />
<glyph unicode="&#xe926;" glyph-name="info" d="M634.029 300.039h-29.998v269.979c0 16.566-13.432 29.998-29.998 29.998h-179.986c-16.566 0-29.998-13.43-29.998-29.998v-119.99c0-16.566 13.43-29.998 29.998-29.998h29.998v-119.99h-29.998c-16.566 0-29.998-13.43-29.998-29.998v-119.99c0-16.566 13.43-29.998 29.998-29.998h239.982c16.566 0 29.998 13.43 29.998 29.998v119.988c0 16.566-13.432 29.998-29.998 29.998zM604.031 180.048h-179.986v59.996h29.998c16.566 0 29.998 13.43 29.998 29.998v179.986c0 16.566-13.432 29.998-29.998 29.998h-29.998v59.996h119.99v-269.979c0-16.566 13.432-29.998 29.998-29.998h29.998v-59.996zM514.037 839.996c-49.622 0-89.994-40.37-89.994-89.994s40.37-89.994 89.994-89.994 89.994 40.37 89.994 89.994-40.37 89.994-89.994 89.994zM514.037 720.006c-16.54 0-29.998 13.456-29.998 29.998 0 16.54 13.458 29.998 29.998 29.998s29.998-13.458 29.998-29.998c0-16.542-13.456-29.998-29.998-29.998zM514.037 959.988c-279.767 0-513.959-226.032-513.959-509.961 0-98.71 28.322-196.808 80.034-278.103l-77.888-194.72c-9.842-24.6 14.752-48.69 38.992-38.994l194.72 77.888c81.296-51.71 179.394-80.034 278.103-80.034 284.237 0 509.961 234.496 509.961 513.959-0.002 281.859-228.084 509.965-509.963 509.965zM514.037-4.338c-92.272 0-183.806 28.268-257.737 78.87-8.27 5.66-18.802 6.81-28.084 3.098l-144.294-57.718 57.718 144.292c3.716 9.292 2.554 19.826-3.098 28.084-50.602 73.932-78.87 165.466-78.87 257.737 0 248.112 204.048 450.365 454.365 450.365 248.112 0 450.365-202.654 450.365-450.765 0-250.316-202.252-453.963-450.365-453.963z" />
<glyph unicode="&#xe927;" glyph-name="sms" d="M934 716h-270v154c0 49.626-40.374 90-90 90h-484c-49.626 0-90-40.374-90-90v-844c0-49.626 40.374-90 90-90h484c49.626 0 90 40.374 90 90v167.574l102.426 102.426h167.574c49.626 0 90 40.374 90 90v240c0 49.626-40.374 90-90 90zM60 870c0 16.542 13.458 30 30 30h484c16.542 0 30-13.458 30-30v-30h-544v30zM604 26c0-16.542-13.458-30-30-30h-484c-16.542 0-30 13.458-30 30v90h544v-90zM604 176h-544v604h544v-64h-30c-49.626 0-90-40.374-90-90v-240c0-49.626 40.374-90 90-90h30c0-13.786 0-107.066 0-120zM964 386c0-16.542-13.458-30-30-30h-180c-7.956 0-15.586-3.16-21.212-8.786l-68.788-68.788v47.574c0 16.568-13.432 30-30 30h-60c-16.542 0-30 13.458-30 30v240c0 16.542 13.458 30 30 30h360c16.542 0 30-13.458 30-30v-240zM874 596h-240c-16.568 0-30-13.432-30-30s13.432-30 30-30h240c16.568 0 30 13.432 30 30s-13.432 30-30 30zM754 476h-120c-16.568 0-30-13.432-30-30s13.432-30 30-30h120c16.568 0 30 13.432 30 30s-13.432 30-30 30z" />
</font>
</defs>
</svg>
